Harcurc replied

129 weeks ago




Married In A Year (2011) Dvdrip > urlin.us/1whci























































Married In A Year (2011) Dvdrip

6f6ddb31bf
Opening Monologue Full cast and crew Stats: General Format : AVI Format/Info : Audio Video Interleave File size : 699 MiB Duration : 1h 12mn Overall bit rate : 1 347 Kbps Writing application : VirtualDubMod 1.5.10.2 (build 2542/release) Writing library : VirtualDubMod build 2542/release Video ID : 0 Format : MPEG-4 Visual Format profile : Advanced [emailprotected] Format settings, BVOP : Yes Format settings, QPel : No Format settings, GMC : No warppoints Format settings, Matrix : Default (H.263) Codec ID : XVID Codec ID/Hint : XviD Duration : 1h 12mn Bit rate : 1 211 Kbps Width : 608 pixels Height : 336 pixels Display aspect ratio : 16:9 Frame rate : 23.976 fps Resolution : 8 bits Colorimetry : 4:2:0 Scan type : Progressive Bits/(Pixel*Frame) : 0.247 Stream size : 628 MiB (90%) Writing library : XviD 1.2.1 (UTC 2008-12-04) Audio ID : 1 Format : MPEG Audio Format version : Version 1 Format profile : Layer 3 Mode : Joint stereo FormatSettingsModeExtension : MS Stereo Codec ID : 55 Codec ID/Hint : MP3 Duration : 1h 12mn Bit rate mode : Variable Bit rate : 124 Kbps Nominal bit rate : 128 Kbps Channel(s) : 2 channels Sampling rate : 48.0 KHz Stream size : 64.2 MiB (9%) Alignment : Aligned on interleaves Interleave, duration : 24 ms (0.58 video frame) Interleave, preload duration : 148 ms Writing library : LAME3.90. How would you survive? 6.9 IMDB: 6.9/10 118 votes movie Zombies: A Living History 2011 DVDRip 5.9 Happy Feet Two Mumble the penguin has a problem: his son Erik, who is reluctant to dance, encounters The Mighty Sven, a penguin who can fly! Things get worse for Mumble when the world is shaken by powerful forces, causing him to brings together the penguin nations and their allies to set things right. Com (((((((((((((= Enjoy No RAR releases =)))))))))))))))))))) .NFO:. Download Marriage.Retreat.2011.DVDRip.XviD-KAZAN crazy-torrent 2012-04-11 18:35:16 698.7 MB 0 1. Why Did I Get Married Too? (2010) BDRip x264-Cyber 60 1 2 3 4 5 ncendecalri Movies Views: 213 Why Did I Get Married Too? (2010) BDRip x264-CyberLanguage: English115 Min 640 x 352 x264 486Kbps 23.976fps DVDrip AAC ? 48KHz 400 MB. 8.2 IMDB: 8.2/10 318,099 votes movie Warrior 2011 DVDRip 8.4 A Separation The movie is centered on a couple, Nader and Simin, and their 11-year-old daughter, Termeh. Cast Credited cast: Sascha Alexander Sascha Alexander .

Now Patti can help your marriage dreams come true with Married in a Year - her proven, easy-to-follow 12-month action plan for finding love. There have been diseases in history that have mimicked behavior of a zombie virus. James Kenny Kelleher Kenny Kelleher . NFO By: CoaXCable/CoolPHat . 7.3 IMDB: 7.3/10 275,749 votes movie Fast and Furious 5 (2011) 2011 Blu-Ray 720p 7.4 Ligo na U Lapit na Me College senior Intoy (Edgar Allan Guzman) is unwittingly fallen into a friend-with-benefits situation with his mysterious classmate Jenny (Mercedes Cabral). In LA, he's taken in by Fred after the out-of-work slacker hits E.B. Genres: Romance Certificate: Not Rated Parents Guide: Add content advisory for parents Edit Details Country: USA Language: English Release Date: 1 February 2011 (USA) See more Box Office Budget: $1,000,000 (estimated) See more Company Credits Production Co: Generation Entertainment, Grindstone Entertainment Group See more Show detailed company contact information on IMDbPro Technical Specs Color: Color See full technical specs User Reviews Review this title Message Boards Discuss Married in a Year (2011) on the IMDb message boards Getting Started Contributor Zone Contribute to This Page Edit page Write review Create a character page for: Beth Sports Bar Guys Sports Bar Guys Opening Monologue Bobby The Bragger Opening Monologue Opening Monologue James Kenny The Critic Wally the Wounded Paulie The Pouncer Tracy Opening Monologue –––––- more. Extras: Official site , Trailer , Hotfile , Fileserve, Offline Download (QuickTorrent) , Subtitles , Subtitles 2 , Download Anonymously . Skip Navigation Home Help Search Calendar Chat Welcome Guest. Opening Monologue See full cast Edit Storyline You too can find true love.

greek wpa finder 3.4.exe[FULL] contoh proposal kti kebidanan asuhan bayi baru lahir patologis dengan asfiksiablack market fur nokia 5800 free downloaddeepika padukone yuvraj singh sex tape peperonity.comlaban for all newlove, jean | dalby, john||
Please log in to post a reply.